<?xml version="1.0" standalone="no"?>
<!DOCTYPE svg PUBLIC "-//W3C//DTD SVG 1.1//EN" "http://www.w3.org/Graphics/SVG/1.1/DTD/svg11.dtd" >
<svg xmlns="http://www.w3.org/2000/svg">
<metadata>Generated by IcoMoon</metadata>
<defs>
<font id="icomoon" horiz-adv-x="1024">
<font-face units-per-em="1024" ascent="960" descent="-64" />
<missing-glyph horiz-adv-x="1024" />
<glyph unicode="&#x20;" horiz-adv-x="512" d="" />
<glyph unicode="&#xe900;" glyph-name="ic_expand_black" d="M707.749 577.553l36.204-36.204-222.902-222.902-222.902 222.902 36.204 36.204 186.698-186.686z" />
<glyph unicode="&#xe901;" glyph-name="ic_srtoke" horiz-adv-x="512" d="M512 960v-505.856l-2409.742-2412.544-252.658 252.948 2662.4 2665.452z" />
<glyph unicode="&#xe902;" glyph-name="ic_call" d="M1024 193.028l-112.291-257.028c-207.169 47.494-355.343 100.099-444.523 157.815-124.455 78.925-229.97 184.229-309.054 308.434-58.034 89.405-110.745 237.967-158.133 445.687l257.030 112.064 139.074-232.867-88.596-173.751c73.326-128.696 180.099-235.255 309.054-308.434l174.1 88.418 233.337-140.337z" />
<glyph unicode="&#xe903;" glyph-name="arrow-right" d="M481.835 695.168l225.835-225.835h-494.336c-23.552 0-42.667-19.115-42.667-42.667s19.115-42.667 42.667-42.667h494.336l-225.835-225.835c-16.683-16.683-16.683-43.691 0-60.331s43.691-16.683 60.331 0l298.667 298.667c3.925 3.925 7.083 8.619 9.259 13.824 4.309 10.453 4.309 22.229 0 32.683-2.091 5.035-5.163 9.728-9.259 13.824l-298.667 298.667c-16.683 16.683-43.691 16.683-60.331 0s-16.683-43.691 0-60.331z" />
<glyph unicode="&#xe904;" glyph-name="arrow-left" d="M542.165 158.166l-225.835 225.835h494.336c23.552 0 42.667 19.115 42.667 42.667s-19.115 42.667-42.667 42.667h-494.336l225.835 225.835c16.683 16.683 16.683 43.691 0 60.331s-43.691 16.683-60.331 0l-298.667-298.667c-4.096-4.096-7.168-8.789-9.259-13.824-2.176-5.205-3.243-10.795-3.243-16.341 0-10.923 4.181-21.845 12.501-30.165l298.667-298.667c16.683-16.683 43.691-16.683 60.331 0s16.683 43.691 0 60.331z" />
<glyph unicode="&#xe905;" glyph-name="arrow-down" d="M780.501 456.832l-225.835-225.835v494.336c0 23.552-19.115 42.667-42.667 42.667s-42.667-19.115-42.667-42.667v-494.336l-225.835 225.835c-16.683 16.683-43.691 16.683-60.331 0s-16.683-43.691 0-60.331l298.667-298.667c3.925-3.925 8.619-7.083 13.824-9.259 10.453-4.309 22.229-4.309 32.683 0 5.035 2.091 9.728 5.163 13.824 9.259l298.667 298.667c16.683 16.683 16.683 43.691 0 60.331s-43.691 16.683-60.331 0z" />
<glyph unicode="&#xe906;" glyph-name="arrow-up" d="M243.499 396.502l225.835 225.835v-494.336c0-23.552 19.115-42.667 42.667-42.667s42.667 19.115 42.667 42.667v494.336l225.835-225.835c16.683-16.683 43.691-16.683 60.331 0s16.683 43.691 0 60.331l-298.667 298.667c-3.925 3.925-8.619 7.083-13.824 9.259s-10.795 3.243-16.341 3.243c-10.923 0-21.845-4.181-30.165-12.501l-298.667-298.667c-16.683-16.683-16.683-43.691 0-60.331s43.691-16.683 60.331 0z" />
<glyph unicode="&#xe907;" glyph-name="ic_unselected_ourprojects" d="M512 813.714l329.143-256v-475.429h-219.429v292.571h-219.429v-292.571h-219.429v475.429l329.143 256zM512 744.229l-274.286-213.321v-393.765h109.714v292.571h329.143v-292.571h109.714v393.728l-274.286 213.358z" />
<glyph unicode="&#xe908;" glyph-name="ic_unselected_more" d="M841.143 704v-54.857h-438.857v54.857zM841.143 521.143v-54.857h-438.857v54.857zM841.143 338.286v-54.857h-438.857v54.857zM292.571 704v-54.857h-109.714v54.857zM292.571 521.143v-54.857h-109.714v54.857zM292.571 338.286v-54.857h-109.714v54.857z" />
<glyph unicode="&#xe909;" glyph-name="ic_unselected_home" d="M841.143 813.714v-329.143h-658.286v329.143h658.286zM786.286 758.857h-548.571v-219.429h548.571v219.429zM841.143 411.429v-329.143h-658.286v329.143h658.286zM786.286 356.571h-548.571v-219.429h548.571v219.429z" />
<glyph unicode="&#xe90a;" glyph-name="chevron-right" d="M414.165 140.502l256 256c16.683 16.683 16.683 43.691 0 60.331l-256 256c-16.683 16.683-43.691 16.683-60.331 0s-16.683-43.691 0-60.331l225.835-225.835-225.835-225.835c-16.683-16.683-16.683-43.691 0-60.331s43.691-16.683 60.331 0z" />
<glyph unicode="&#xe90b;" glyph-name="ic_selected_home" d="M182.857 813.714h658.286v-329.143h-658.286v329.143zM182.857 411.429h658.286v-329.143h-658.286v329.143z" />
<glyph unicode="&#xe90c;" glyph-name="chevron-left" d="M670.165 200.832l-225.835 225.835 225.835 225.835c16.683 16.683 16.683 43.691 0 60.331s-43.691 16.683-60.331 0l-256-256c-16.683-16.683-16.683-43.691 0-60.331l256-256c16.683-16.683 43.691-16.683 60.331 0s16.683 43.691 0 60.331z" />
<glyph unicode="&#xe90d;" glyph-name="chevron-down" d="M225.835 524.502l256-256c16.683-16.683 43.691-16.683 60.331 0l256 256c16.683 16.683 16.683 43.691 0 60.331s-43.691 16.683-60.331 0l-225.835-225.835-225.835 225.835c-16.683 16.683-43.691 16.683-60.331 0s-16.683-43.691 0-60.331z" />
<glyph unicode="&#xe90e;" glyph-name="chevron-up" d="M798.165 328.832l-256 256c-16.683 16.683-43.691 16.683-60.331 0l-256-256c-16.683-16.683-16.683-43.691 0-60.331s43.691-16.683 60.331 0l225.835 225.835 225.835-225.835c16.683-16.683 43.691-16.683 60.331 0s16.683 43.691 0 60.331z" />
<glyph unicode="&#xe90f;" glyph-name="more-selected" d="M841.143 685.714v-91.429h-438.857v91.429zM841.143 484.571v-91.429h-438.857v91.429zM841.143 283.429v-91.429h-438.857v91.429zM292.571 685.714v-91.429h-109.714v91.429zM292.571 484.571v-91.429h-109.714v91.429zM292.571 283.429v-91.429h-109.714v91.429z" />
<glyph unicode="&#xe910;" glyph-name="check" d="M384 248.667l452 452 60-60-512-512-238 238 60 60z" />
<glyph unicode="&#xe911;" glyph-name="ic_Checked_checkbox" d="M835.231 739.169l36.204-36.204-359.435-359.435-120.502 120.502 36.204 36.204 84.298-84.286zM648.533 780.8v-51.2h-418.133v-563.2h563.2v281.6h51.2v-332.8h-665.6v665.6z" />
<glyph unicode="&#xe912;" glyph-name="share-2" d="M691.797 166.486c1.067 1.408 2.048 2.859 2.987 4.437 0.853 1.493 1.621 3.029 2.304 4.565 3.115 4.608 6.656 8.917 10.581 12.843 15.488 15.488 36.736 25.003 60.331 25.003s44.843-9.515 60.331-25.003 25.003-36.736 25.003-60.331-9.515-44.843-25.003-60.331-36.736-25.003-60.331-25.003-44.843 9.515-60.331 25.003-25.003 36.736-25.003 60.331c0 13.867 3.285 26.923 9.131 38.485zM695.509 680.278c-0.384 0.725-0.768 1.451-1.195 2.176s-0.853 1.451-1.323 2.133c-6.571 12.075-10.325 25.941-10.325 40.747 0 23.595 9.515 44.843 25.003 60.331s36.736 25.003 60.331 25.003 44.843-9.515 60.331-25.003 25.003-36.736 25.003-60.331-9.515-44.843-25.003-60.331-36.736-25.003-60.331-25.003-44.843 9.515-60.331 25.003c-4.608 4.608-8.704 9.728-12.16 15.275zM328.491 471.723c0.384-0.725 0.768-1.451 1.195-2.176s0.853-1.451 1.323-2.133c6.571-12.075 10.325-25.941 10.325-40.747s-3.755-28.672-10.368-40.789c-0.469-0.683-0.896-1.408-1.323-2.133s-0.811-1.408-1.152-2.133c-3.456-5.547-7.552-10.667-12.16-15.275-15.488-15.488-36.736-25.003-60.331-25.003s-44.843 9.515-60.331 25.003-25.003 36.736-25.003 60.331 9.515 44.843 25.003 60.331 36.736 25.003 60.331 25.003 44.843-9.515 60.331-25.003c4.608-4.608 8.704-9.728 12.16-15.275zM603.733 678.912l-226.475-132.139c-0.171 0.213-0.384 0.384-0.597 0.597-30.805 30.805-73.557 49.963-120.661 49.963s-89.856-19.157-120.661-50.005-50.005-73.557-50.005-120.661 19.157-89.856 50.005-120.661 73.557-50.005 120.661-50.005 89.856 19.157 120.661 50.005c0.213 0.213 0.384 0.384 0.597 0.597l226.517-132.011c-4.181-14.805-6.443-30.464-6.443-46.592 0-47.104 19.157-89.856 50.005-120.661s73.557-50.005 120.661-50.005 89.856 19.157 120.661 50.005 50.005 73.557 50.005 120.661-19.157 89.856-50.005 120.661-73.557 50.005-120.661 50.005-89.856-19.157-120.661-50.005c-0.128-0.128-0.299-0.299-0.427-0.427l-226.645 132.053c4.181 14.763 6.4 30.293 6.4 46.379s-2.219 31.659-6.4 46.421l226.475 132.181c0.171-0.213 0.384-0.384 0.597-0.597 30.805-30.848 73.557-50.005 120.661-50.005s89.856 19.157 120.661 50.005 50.005 73.557 50.005 120.661-19.157 89.856-50.005 120.661-73.557 50.005-120.661 50.005-89.856-19.157-120.661-50.005-50.005-73.557-50.005-120.661c0-16.085 2.219-31.659 6.4-46.421z" />
<glyph unicode="&#xe913;" glyph-name="cost-selected" d="M512 813.714c201.984 0 365.714-163.73 365.714-365.714s-163.73-365.714-365.714-365.714-365.714 163.73-365.714 365.714 163.73 365.714 365.714 365.714zM621.714 617.143h-219.429v-45.714h75.959l5.376-0.219c25.198-2.121 46.482-19.127 55.589-42.679h-136.923v-45.714l138.862-0.037c-8.265-28.16-33.39-48.494-62.903-48.494h-75.959v-45.714h27.136l139.557-139.593 32.329 32.329-108.325 108.251c48.274 6.546 86.638 44.617 95.013 93.257h33.719v45.714h-34.816c-3.547 15.799-10.277 30.354-19.493 42.935l54.309-0.037v45.714z" />
<glyph unicode="&#xe914;" glyph-name="share" d="M694.033 780.8c-64.41 0-116.599-52.224-116.599-116.634s52.224-116.599 116.599-116.599c64.41 0 116.634 52.224 116.634 116.599 0 64.41-52.224 116.634-116.634 116.634zM694.033 729.6c36.147 0 65.434-29.286 65.434-65.434 0-36.113-29.286-65.399-65.434-65.399-36.113 0-65.399 29.286-65.399 65.399 0 36.147 29.286 65.434 65.399 65.434zM329.967 568.422c-64.41 0-116.634-52.224-116.634-116.668 0-64.41 52.224-116.634 116.634-116.634s116.599 52.224 116.599 116.634c0 64.41-52.224 116.634-116.599 116.634zM329.967 517.222c36.113 0 65.399-29.286 65.399-65.434 0-36.113-29.286-65.434-65.399-65.434-36.147 0-65.434 29.321-65.434 65.434 0 36.147 29.286 65.434 65.434 65.434zM694.033 356.045c-64.41 0-116.599-52.224-116.599-116.634s52.224-116.634 116.599-116.634c64.41 0 116.634 52.224 116.634 116.634s-52.224 116.634-116.634 116.634zM694.033 304.845c36.147 0 65.434-29.321 65.434-65.434 0-36.147-29.286-65.434-65.434-65.434-36.113 0-65.399 29.286-65.399 65.434 0 36.113 29.286 65.434 65.399 65.434zM421.41 428.1l207.258-120.764-25.805-44.237-207.223 120.764zM602.556 640.478l25.805-44.237-206.916-120.73-25.805 44.203z" />
<glyph unicode="&#xe915;" glyph-name="ic-arrowback" d="M238.933 473.6v-51.2h546.133v51.2zM548.181 702.976l-36.181 36.181-291.191-291.157 291.191-291.157 36.181 36.181-254.942 254.976z" />
<glyph unicode="&#xe916;" glyph-name="ic-facebook" d="M642.048 721.562h74.752v130.253c-12.8 1.792-57.19 5.786-108.851 5.786-107.878 0-181.76-67.84-181.76-192.512v-114.688h-118.989v-145.613h118.989v-366.387h145.92v366.336h114.176l18.022 145.664h-132.301v100.352c0 42.086 11.366 70.861 69.99 70.861z" />
<glyph unicode="&#xe917;" glyph-name="ic-instagram" d="M512.154 658.33c-116.173 0-210.227-94.106-210.227-210.176 0-116.173 94.208-210.176 210.227-210.176 116.122 0 210.176 94.106 210.176 210.176 0 116.173-94.157 210.176-210.176 210.176zM512.154 311.706c-75.418 0-136.448 61.082-136.448 136.448s61.082 136.448 136.448 136.448 136.397-61.082 136.397-136.448c0.051-75.366-61.030-136.448-136.397-136.448zM680.909 855.040c-75.366 3.482-262.093 3.328-337.51 0-66.253-3.072-124.723-19.149-171.878-66.253-78.797-78.797-68.71-184.934-68.71-340.634 0-159.334-8.858-263.014 68.71-340.634 79.104-79.053 186.778-68.71 340.634-68.71 157.798 0 212.275-0.102 268.083 21.504 75.878 29.491 133.171 97.28 138.752 219.136 3.584 75.366 3.379 262.042 0 337.459-6.758 143.821-83.917 231.014-238.029 238.131zM800.205 159.642c-51.661-51.61-123.29-47.002-289.075-47.002-170.65 0-239.104-2.56-289.024 47.514-57.498 57.242-47.104 149.197-47.104 288.563 0 188.57-19.354 324.403 169.933 334.080 43.52 1.536 56.32 2.048 165.734 2.048l1.536-1.024c181.914 0 324.608 19.046 333.158-170.189 1.946-43.162 2.406-56.166 2.406-165.427 0-168.704 3.174-237.568-47.616-288.563zM781.875 666.624c0-28.277-22.923-51.2-51.2-51.2s-51.2 22.923-51.2 51.2c0 28.277 22.923 51.2 51.2 51.2s51.2-22.923 51.2-51.2z" />
<glyph unicode="&#xe918;" glyph-name="ic-linkedin" d="M921.395 38.4h0.205v300.544c0 146.944-31.642 260.198-203.469 260.198-82.586 0-138.035-45.363-160.666-88.32h-2.406v74.547h-162.867v-546.97h169.677v270.848c0 71.322 13.517 140.288 101.786 140.288 87.040 0 88.32-81.408 88.32-144.896v-266.24h169.472zM115.917 585.318h169.83v-546.918h-169.83zM200.755 857.6c-54.272 0-98.355-44.032-98.355-98.355s44.032-99.328 98.355-99.328 98.406 45.005 98.406 99.328c-0.051 54.272-44.186 98.355-98.458 98.355z" />
<glyph unicode="&#xe919;" glyph-name="ic-twitter" d="M921.6 727.603c-30.464-13.363-62.925-22.221-96.768-26.522 34.816 20.787 61.389 53.453 73.882 92.826-32.461-19.354-68.301-33.024-106.496-40.653-30.822 32.819-74.752 53.146-122.675 53.146-92.979 0-167.834-75.469-167.834-167.987 0-13.312 1.126-26.112 3.891-38.298-139.622 6.81-263.168 73.728-346.163 175.667-14.49-25.139-22.989-53.914-22.989-84.89 0-58.163 29.952-109.722 74.598-139.571-26.982 0.512-53.453 8.346-75.878 20.685v-1.843c0-81.613 58.214-149.402 134.554-165.018-13.67-3.738-28.57-5.53-44.032-5.53-10.752 0-21.606 0.614-31.795 2.867 21.76-66.509 83.507-115.405 156.928-116.992-57.139-44.698-129.69-71.629-208.23-71.629-13.773 0-26.982 0.614-40.192 2.304 74.394-47.974 162.56-75.366 257.638-75.366 309.043 0 478.003 256 478.003 477.901 0 7.424-0.256 14.592-0.614 21.709 33.331 23.654 61.338 53.197 84.173 87.194z" />
<glyph unicode="&#xe91a;" glyph-name="home-selected" d="M512 813.714l329.143-256v-475.429h-219.429v292.571h-219.429v-292.571h-219.429v475.429l329.143 256z" />
<glyph unicode="&#xe91b;" glyph-name="cost-unselected" d="M512 813.714c201.984 0 365.714-163.73 365.714-365.714s-163.73-365.714-365.714-365.714-365.714 163.73-365.714 365.714 163.73 365.714 365.714 365.714zM512 758.857c-171.666 0-310.857-139.191-310.857-310.857s139.191-310.857 310.857-310.857 310.857 139.191 310.857 310.857-139.191 310.857-310.857 310.857zM621.714 617.143v-45.714h-54.309c9.216-12.544 15.945-27.099 19.493-42.935h34.816v-45.714h-33.719c-8.411-48.567-46.775-86.674-95.013-93.221l108.325-108.251-32.329-32.329-139.557 139.593h-27.136v45.714h75.959c29.513 0 54.638 20.334 62.903 48.494h-138.862v45.714l136.96 0.037c-9.143 23.552-30.427 40.558-55.625 42.679l-5.376 0.219h-75.959v45.714h219.429z" />
<glyph unicode="&#xe91c;" glyph-name="ic-smallstroke-orange" horiz-adv-x="512" d="M512 960v-505.856l-2409.728-2412.544-252.672 252.928 2662.4 2665.472z" />
<glyph unicode="&#xe91d;" glyph-name="ic-strokemedium-orange" horiz-adv-x="780" d="M2829.653 3008l120.418-120.491-2950.071-2951.509v240.981l2829.653 2831.043z" />
<glyph unicode="&#xe91e;" glyph-name="plus" d="M213.333 384h256v-256c0-23.552 19.115-42.667 42.667-42.667s42.667 19.115 42.667 42.667v256h256c23.552 0 42.667 19.115 42.667 42.667s-19.115 42.667-42.667 42.667h-256v256c0 23.552-19.115 42.667-42.667 42.667s-42.667-19.115-42.667-42.667v-256h-256c-23.552 0-42.667-19.115-42.667-42.667s19.115-42.667 42.667-42.667z" />
<glyph unicode="&#xe91f;" glyph-name="minus" d="M213.333 384h597.333c23.552 0 42.667 19.115 42.667 42.667s-19.115 42.667-42.667 42.667h-597.333c-23.552 0-42.667-19.115-42.667-42.667s19.115-42.667 42.667-42.667z" />
<glyph unicode="&#xe920;" glyph-name="ic-collapse-black" d="M750.933 452.267v-51.2h-477.867v51.2z" />
<glyph unicode="&#xe921;" glyph-name="ic-expand-black" d="M537.6 665.6v-477.867h-51.2v477.867zM750.933 452.267v-51.2h-477.867v51.2z" />
<glyph unicode="&#xe922;" glyph-name="ic-qualitycheck" d="M512 802.134l86.4-53.077 101.333 2.731 48.256-89.173 89.173-48.256-2.773-101.333 53.077-86.357-53.077-86.4 2.773-101.333-89.173-48.256-48.256-89.173-101.333 2.773-86.4-53.077-86.4 53.077-101.333-2.773-48.256 89.173-89.173 48.256 2.773 101.333-53.077 86.4 53.077 86.4-2.731 101.333 89.173 48.256 48.213 89.173 101.333-2.773 86.4 53.077zM662.869 551.808l-193.963-232.789-109.013 109.013-29.525-29.483 141.269-141.312 223.275 267.861-32.043 26.709z" />
<glyph unicode="&#xe923;" glyph-name="ic-totalprojects" d="M512 624.555l-281.771-216.789v-290.475h226.432v212.864h120.277v-212.864h216.832v290.475zM805.589 576.299v148.523h-118.699v-57.259l-174.891 134.571-409.6-315.093 56.533-73.515 353.067 271.701 353.067-271.701 56.533 73.515z" />
<glyph unicode="&#xe924;" glyph-name="ic-warranty" d="M500.48 807.51c7.083 4.224 15.957 4.224 23.040 0l318.549-189.013c6.485-3.84 10.581-10.667 11.008-18.133 0.213-4.096 4.779-101.333-33.408-218.581-53.205-163.627-159.573-275.328-298.496-337.152-5.845-2.645-12.544-2.56-18.347 0-138.923 61.867-245.291 173.525-298.539 337.152-38.144 117.248-33.579 214.485-33.365 218.581 0.427 7.467 4.523 14.293 11.008 18.133zM667.435 554.667l-199.595-238.080-112.213 111.488-30.379-30.165 145.408-144.512 229.76 273.92-32.981 27.349z" />
<glyph unicode="&#xe925;" glyph-name="ic-testimonial" horiz-adv-x="1216" d="M511.488-64v526.912h-202.688l139.968 497.088h-217.152l-231.616-551.744v-472.256h511.488zM1216-64v526.912h-202.688l139.968 497.088h-217.152l-231.68-551.744v-472.256h511.552z" />
<glyph unicode="&#xe926;" d="M1024 448c0-282.77-229.23-512-512-512s-512 229.23-512 512c0 282.77 229.23 512 512 512s512-229.23 512-512z" />
<glyph unicode="&#xe927;" d="M395.636 610.909l279.273-162.909-279.273-162.909z" />
<glyph unicode="&#xe928;" glyph-name="ic-search" d="M481.655 746.667c148.207 0 268.322-120.149 268.322-268.322 0-64.887-23.040-124.416-61.372-170.803l114.551-114.517-36.181-36.181-114.517 114.551c-46.421-38.332-105.916-61.372-170.803-61.372-148.173 0-268.322 120.149-268.322 268.288 0 148.207 120.149 268.356 268.322 268.356zM481.655 695.467c-119.91 0-217.122-97.212-217.122-217.122s97.212-217.122 217.122-217.122 217.122 97.212 217.122 217.088c0 119.945-97.212 217.156-217.088 217.156z" />
<glyph unicode="&#xe929;" glyph-name="ic-filter" d="M874.837 746.667h-725.675l275.797-322.082v-204.868l174.080-85.982-0.034 290.85 275.797 322.082zM260.403 695.467h503.159l-215.723-251.972-0.034-227.328-71.646 35.396v191.932l-215.757 251.972z" />
<glyph unicode="&#xe92a;" glyph-name="ic_login" horiz-adv-x="870" d="M806.4 384v-396.8h-76.8v320h-640v-320h-76.8v396.8zM409.6 947.2c-120.177 0-217.6-97.423-217.6-217.6s97.423-217.6 217.6-217.6c120.177 0 217.6 97.423 217.6 217.6s-97.423 217.6-217.6 217.6zM409.6 870.4c77.762 0 140.8-63.038 140.8-140.8s-63.038-140.8-140.8-140.8c-77.762 0-140.8 63.038-140.8 140.8s63.038 140.8 140.8 140.8z" />
<glyph unicode="&#xe92b;" d="M1003.52 436.338c0 36.352-3.243 71.225-9.33 104.732h-482.19v-198.030h275.57c-11.89-64-47.957-118.215-102.172-154.51v-128.512h165.433c96.825 89.145 152.69 220.444 152.69 376.32z" />
<glyph unicode="&#xe92c;" d="M512-64c138.24 0 254.123 45.852 338.83 124.018l-165.433 128.512c-45.852-30.72-104.505-48.924-173.397-48.924-133.348 0-246.215 90.112-286.492 211.115h-171.065v-132.665c84.252-167.31 257.422-282.055 457.557-282.055z" />
<glyph unicode="&#xe92d;" d="M225.508 350.72c-10.24 30.72-16.043 63.545-16.043 97.28s5.803 66.56 16.043 97.28v132.665h-171.065c-34.702-69.12-54.443-147.342-54.443-229.945s19.797-160.825 54.443-229.945l171.065 132.665z" />
<glyph unicode="&#xe92e;" d="M512 756.338c75.15 0 142.677-25.828 195.698-76.516l146.887 146.773c-88.69 82.716-204.572 133.404-342.585 133.404-200.135 0-373.305-114.745-457.557-282.055l171.065-132.665c40.277 121.003 153.145 211.058 286.492 211.058z" />
<glyph unicode="&#xe92f;" glyph-name="ic-direction" d="M512 870.4c-191.078 0-345.6-158.054-345.6-352.563 0-118.579 61.901-234.598 163.84-344.678 34.918-37.683 72.192-71.987 109.517-102.4 9.83-7.987 19.098-15.258 27.802-21.862l17.101-12.595 27.341-18.79 27.341 18.79 8.704 6.298 17.306 13.107c6.042 4.71 12.339 9.728 18.944 15.053 37.274 30.413 74.547 64.717 109.466 102.4 101.939 110.080 163.84 226.099 163.84 344.678 0 194.56-154.522 352.563-345.6 352.563zM512 793.6c148.275 0 268.8-123.29 268.8-275.763 0-95.232-53.299-195.277-143.36-292.454-32.256-34.867-67.021-66.816-101.683-95.078l-17.459-13.875-6.298-4.813-6.298 4.813-17.408 13.875c-34.714 28.262-69.427 60.211-101.734 95.078-90.061 97.178-143.36 197.171-143.36 292.454 0 152.474 120.525 275.763 268.8 275.763zM512 665.6c-77.773 0-140.8-63.027-140.8-140.8s63.027-140.8 140.8-140.8 140.8 63.027 140.8 140.8-63.027 140.8-140.8 140.8zM512 588.8c35.328 0 64-28.672 64-64s-28.672-64-64-64-64 28.672-64 64 28.672 64 64 64z" />
<glyph unicode="&#xe930;" glyph-name="clear" d="M810 664.667l-238-238 238-238-60-60-238 238-238-238-60 60 238 238-238 238 60 60 238-238 238 238z" />
<glyph unicode="&#xe931;" glyph-name="combined-shape" d="M512 953.905c279.406 0 505.905-226.499 505.905-505.905s-226.499-505.905-505.905-505.905-505.905 226.499-505.905 505.905 226.499 505.905 505.905 505.905zM512 917.333c-259.194 0-469.333-210.139-469.333-469.333s210.139-469.333 469.333-469.333 469.333 210.139 469.333 469.333-210.139 469.333-469.333 469.333zM512 687.543c76.069 0 138.971-54.272 141.897-123.392l0.122-5.071v-86.699h10.118c23.698 0 42.91-19.212 42.91-42.91v-157.989c0-23.698-19.212-42.91-42.91-42.91h-304.274c-23.698 0-42.91 19.212-42.91 42.91v157.989c0 23.698 19.212 42.91 42.91 42.91h10.118v86.699c0 71.509 64.073 128.463 142.019 128.463zM512 326.095c-13.458 0-24.381-10.923-24.381-24.381s10.923-24.381 24.381-24.381 24.381 10.923 24.381 24.381-10.923 24.381-24.381 24.381zM512 647.314c-54.93 0-98.962-37.595-101.669-83.749l-0.122-4.486v-86.699h203.581v86.699c0 48.152-45.080 88.235-101.79 88.235z" />
<glyph unicode="&#xe932;" glyph-name="ic-price" d="M512 813.714c201.984 0 365.714-163.73 365.714-365.714s-163.73-365.714-365.714-365.714-365.714 163.73-365.714 365.714 163.73 365.714 365.714 365.714zM621.714 617.143h-219.429v-45.714h75.959l5.376-0.219c25.198-2.121 46.482-19.127 55.589-42.679h-136.923v-45.714l138.862-0.037c-8.265-28.16-33.39-48.494-62.903-48.494h-75.959v-45.714h27.136l139.557-139.593 32.329 32.329-108.325 108.251c48.274 6.546 86.638 44.617 95.013 93.257h33.719v45.714h-34.816c-3.547 15.799-10.277 30.354-19.493 42.935l54.309-0.037v45.714z" />
<glyph unicode="&#xe933;" glyph-name="ic-floor" d="M292.571 813.714v-146.286h146.286v-146.286h146.286v-146.286h146.286v-146.286h146.286v-146.286h-731.429v731.429h146.286z" />
<glyph unicode="&#xe934;" glyph-name="ic-package" d="M804.571 521.143v-438.857h-585.143v438.857h585.143zM621.714 448h-219.429v-54.857h219.429v54.857zM877.714 813.714v-219.429h-731.429v219.429h731.429z" />
<glyph unicode="&#xe935;" glyph-name="ic-sq-feet" d="M877.714 806.766v-196.535l-527.945-527.945h-196.535l724.48 724.48zM877.714 548.206v-196.571l-269.349-269.349h-196.571l465.92 465.92zM877.714 289.573v-196.535l-10.752-10.752h-196.535l207.287 207.287zM822.638 813.714l-676.352-676.352v196.535l479.817 479.817h196.535zM564.041 813.714l-417.755-417.755v196.535l221.221 221.257h196.535zM305.371 813.714l-159.086-159.086v159.086h159.086z" />
<glyph unicode="&#xe936;" glyph-name="ic_payment" d="M664 824v-216h168v-448h-640v448h168v216h304zM616 776h-208v-168h208v168z" />
<glyph unicode="&#xe937;" glyph-name="ic-linkedin1" d="M931.392 960h-838.784c-51.136 0-92.608-41.472-92.608-92.608v-838.784c0-51.136 41.472-92.608 92.608-92.608h838.784c51.136 0 92.608 41.472 92.608 92.608v838.784c0 51.136-41.472 92.608-92.608 92.608zM316.8 75.84c0-14.912-12.032-27.008-26.944-27.008h-114.688c-14.912 0-26.944 12.096-26.944 27.008v480.96c0 14.912 12.032 27.008 26.944 27.008h114.752c14.912 0 26.944-12.096 26.944-27.008v-480.96zM232.512 629.12c-60.16 0-108.992 48.832-108.992 108.992 0 60.224 48.832 109.056 108.992 109.056 60.224 0 109.056-48.832 109.056-109.056 0-60.16-48.832-108.992-109.056-108.992zM916.544 73.6c0-13.632-11.136-24.768-24.768-24.768h-123.136c-13.696 0-24.832 11.136-24.832 24.832v225.6c0 33.664 9.92 147.52-87.936 147.52-75.904 0-91.264-77.952-94.4-112.896v-260.224c0-13.696-11.072-24.832-24.768-24.832h-119.040c-13.696 0-24.832 11.136-24.832 24.832v485.312c0 13.696 11.136 24.832 24.768 24.832h119.104c13.696 0 24.768-11.136 24.768-24.832v-41.92c28.16 42.24 70.016 74.816 159.040 74.816 197.12 0 196.032-184.192 196.032-285.44v-232.768z" />
<glyph unicode="&#xe938;" d="M768 832v-768h-512v768h512zM704 768h-384v-640h384v640z" />
<glyph unicode="&#xe939;" glyph-name="ic-price1" d="M512 850.272c222.176 0 402.272-180.096 402.272-402.272s-180.096-402.272-402.272-402.272-402.272 180.096-402.272 402.272 180.096 402.272 402.272 402.272zM632.672 634.048h-241.312v-50.272h83.52l5.92-0.256c27.712-2.336 51.168-21.024 61.184-46.944h-150.624v-50.272h152.736c-9.056-31.008-36.736-53.376-69.184-53.376h-83.552v-50.304h29.76l153.6-153.536 35.52 35.52-119.104 119.104c53.056 7.2 95.264 49.12 104.512 102.56h37.056v50.304h-38.304c-3.872 17.376-11.296 33.376-21.408 47.2h59.712v50.272z" />
<glyph unicode="&#xe93a;" glyph-name="ic-quality" d="M512 841.344l90.496-55.616 106.176 2.912 50.56-93.408 93.44-50.56-2.944-106.176 55.616-90.496-55.616-90.496 2.912-106.176-93.408-50.56-50.56-93.44-106.176 2.944-90.496-55.616-90.496 55.616-106.176-2.912-50.56 93.408-93.44 50.56 2.944 106.176-55.616 90.496 55.616 90.496-2.912 106.176 93.408 50.56 50.56 93.44 106.176-2.944 90.496 55.616zM670.048 579.104l-203.2-243.84-114.208 114.176-30.944-30.912 148.032-148 233.888 280.576-33.6 28z" />
<glyph unicode="&#xe93b;" glyph-name="ic-time" d="M512 850.272c222.176 0 402.272-180.096 402.272-402.272s-180.096-402.272-402.272-402.272-402.272 180.096-402.272 402.272 180.096 402.272 402.272 402.272zM536 706.048h-48v-282.752l196.16-87.552 19.552 43.84-167.712 74.88v251.552z" />
<glyph unicode="&#xe93c;" d="M256 832h512v-96h-512v96z" />
<glyph unicode="&#xe93d;" d="M256 224h512v-160h-512v160z" />
<glyph unicode="&#xe93e;" d="M509.074 173.54c20.198 0 36.571-16.374 36.571-36.571 0-18.851-14.263-34.371-32.587-36.357l-4.351-0.215c-20.198 0-36.571 16.374-36.571 36.571 0 18.851 14.263 34.371 32.587 36.357l4.351 0.215z" />
<glyph unicode="&#xe93f;" glyph-name="ic-distrupting" d="M829.12 832l64-224h-62.56v-544h-64v384h-512v-384h-64v544h-62.56l64 224h637.12zM374.56 224v-24c0-13.248 10.752-24 24-24s24 10.752 24 24v24h72v-160h-192v160h72zM598.56 224v-24c0-13.248 10.752-24 24-24s24 10.752 24 24v24h72v-160h-192v160h72zM486.56 416v-24c0-13.248 10.752-24 24-24s24 10.752 24 24v24h72v-160h-192v160h72z" />
<glyph unicode="&#xe940;" d="M146.272 813.728h475.424v-731.424h-475.424zM658.272 594.304h219.424v-512h-219.424z" />
<glyph unicode="&#xe941;" d="M256 265.152h109.728v-182.848h-109.728z" />
<glyph unicode="&#xe942;" d="M200 448.192h160v-109.728h-160zM200 594.368h160v-109.728h-160zM200 740.576h160v-109.728h-160zM408 740.576h160v-109.728h-160zM408 594.368h160v-109.728h-160zM408 448.192h160v-109.728h-160z" />
<glyph unicode="&#xe943;" d="M704 544h128v-109.728h-128zM704 397.792h128v-109.728h-128zM704 251.616h128v-109.728h-128z" />
<glyph unicode="&#xe944;" glyph-name="ic-passionate" d="M585.312 570.528v144.864l-80.064 65.984-139.52-280.32v-382.176h445.024l103.52 451.648h-328.96zM310.848 118.88h-164.576v365.696h164.576z" />
<glyph unicode="&#xe945;" glyph-name="out" d="M960 512c-35.376 0-64-28.656-64-64v-384h-768v384c0 35.344-28.624 64-64 64s-64-28.656-64-64v-448c0-35.344 28.624-64 64-64h896c35.376 0 64 28.656 64 64v448c0 35.344-28.624 64-64 64zM448 320c0-35.344 28.624-64 64-64s64 28.656 64 64v384h192l-256 256-256-256h192v-384z" />
<glyph unicode="&#xe946;" glyph-name="ic-startup" d="M128 320h192v-128h-192zM704 640h192v-448h-192zM416 480h192v-288h-192zM128 128h768v-64h-768zM817.536 851.168l28.928-38.336-265.472-200.192-208.8 43.488-164.512-142.24-31.36 36.288 182.432 157.728 210.688-43.84zM704 864h152v-152h-48v104h-104z" />
<glyph unicode="&#xe947;" glyph-name="ic-transparent-copy" d="M571.904 563.264c5.568-23.296 13.76-46.112 24.48-67.776l5.408-10.88c22.080-44.256 49.6-99.392 51.008-151.36v-64.32c0-43.744-12.416-82.976-25.12-119.36-19.584-56-46.304-85.568-77.28-85.568h-76.8c-30.976 0-57.696 29.6-77.248 85.568-12.736 36.384-25.152 75.616-25.152 119.36v64c1.408 52.288 28.928 107.424 51.008 151.68l5.408 10.88c10.688 21.632 18.88 44.416 24.448 67.776zM392.704 563.264c3.904-16.384 9.216-32.576 15.712-48.256-1.248-2.72-2.4-5.472-3.744-8.16l-5.376-10.784c-23.2-46.56-52.096-104.48-53.696-163.136v-64c0-47.776 13.12-89.344 26.56-127.808 9.92-28.288 21.152-48.992 32.832-64.192-10.464-8.576-21.76-12.928-33.792-12.928h-76.8c-30.976 0-57.696 29.6-77.248 85.568-12.736 36.352-25.152 75.616-25.152 119.36v64c1.408 52.288 28.928 107.424 51.008 151.68l5.408 10.88c10.688 21.632 18.88 44.416 24.448 67.776zM751.104 563.264c5.568-23.296 13.76-46.144 24.512-67.808l5.376-10.816c22.080-44.288 49.6-99.424 51.008-151.36v-64.32c0-43.808-12.416-82.976-25.152-119.392-19.52-56-46.272-85.568-77.248-85.568h-76.8c-12.032 0-23.328 4.32-33.792 12.928 11.68 15.2 22.944 35.904 32.832 64.192 13.44 38.464 26.56 80 26.56 127.84v65.024c-1.6 57.6-30.464 115.52-53.696 162.048l-5.376 10.784c-1.312 2.688-2.496 5.44-3.744 8.192 6.496 15.68 11.776 31.808 15.68 48.256zM565.28 652.864c-0.992-6.048-1.76-11.904-2.048-17.408 0-15.488 1.344-31.072 3.744-46.592h-110.016c2.432 15.68 3.776 31.52 3.776 47.296-0.32 5.216-1.024 10.88-2.016 16.672zM744.48 652.864c-0.992-6.048-1.76-11.904-2.048-17.408 0-15.488 1.344-31.072 3.744-46.592h-110.016c2.432 15.68 3.776 31.52 3.776 47.296-0.32 5.216-1.024 10.88-1.984 16.672zM386.080 652.864c-0.992-6.048-1.76-11.904-2.048-17.408 0-15.488 1.344-31.072 3.744-46.592h-110.016c2.432 15.68 3.776 31.52 3.776 47.296-0.32 5.216-1.024 10.88-2.016 16.672zM516 831.968c27.744-0.416 53.6-5.984 68.928-50.56 5.216-15.104 5.12-32.96-0.224-52.992-1.376-5.12-3.104-11.104-5.024-17.6-2.816-9.664-6.080-20.864-8.96-32.384h-117.44c-2.88 11.488-6.144 22.72-8.96 32.352-1.92 6.528-3.648 12.48-5.024 17.6-5.344 20.096-5.44 37.92-0.224 53.024 16.064 46.752 43.648 50.592 72.928 50.592zM695.2 831.968c27.744-0.416 53.6-5.984 68.928-50.56 5.216-15.104 5.12-32.96-0.224-52.992-1.376-5.12-3.104-11.104-5.024-17.6-2.816-9.664-6.080-20.864-8.96-32.384h-117.44c-2.88 11.488-6.144 22.72-8.96 32.352-1.92 6.528-3.648 12.48-5.024 17.6-5.344 20.096-5.44 37.92-0.224 53.024 16.064 46.752 43.648 50.592 72.928 50.592zM336.8 831.968c27.744-0.416 53.6-5.984 68.928-50.56 5.216-15.104 5.12-32.96-0.224-52.992-1.376-5.12-3.104-11.104-5.024-17.6-2.816-9.664-6.080-20.864-8.96-32.384h-117.44c-2.88 11.488-6.144 22.72-8.96 32.352-1.92 6.528-3.648 12.48-5.024 17.6-5.344 20.096-5.44 37.92-0.224 53.024 16.064 46.752 43.648 50.592 72.928 50.592z" />
<glyph unicode="&#xe948;" glyph-name="ic-smallstroke-orange1" horiz-adv-x="512" d="M512 960v-505.856l-2409.728-2412.544-252.672 252.928 2662.4 2665.472z" />
<glyph unicode="&#xe949;" glyph-name="ic_share" d="M694.044 780.8c64.409 0 116.622-52.214 116.622-116.622s-52.214-116.622-116.622-116.622c-33.658 0-63.986 14.259-85.273 37.065l-167.645-97.79c3.541-11.148 5.451-23.021 5.451-35.341 0-12.317-1.909-24.188-5.448-35.333l167.706-97.73c21.284 22.766 51.584 36.996 85.209 36.996 64.409 0 116.622-52.214 116.622-116.622s-52.214-116.622-116.622-116.622c-64.409 0-116.622 52.214-116.622 116.622 0 12.37 1.926 24.29 5.494 35.477l-167.656 97.689c-21.288-22.826-51.63-37.099-85.305-37.099-64.409 0-116.622 52.214-116.622 116.622s52.214 116.622 116.622 116.622c33.675 0 64.017-14.273 85.305-37.099l167.613 97.824c-3.541 11.148-5.451 23.021-5.451 35.341 0 64.409 52.214 116.622 116.622 116.622zM694.044 304.223c-36.132 0-65.422-29.291-65.422-65.422s29.291-65.422 65.422-65.422c36.132 0 65.422 29.291 65.422 65.422s-29.291 65.422-65.422 65.422zM329.956 516.911c-36.132 0-65.422-29.291-65.422-65.422s29.291-65.422 65.422-65.422c36.132 0 65.422 29.291 65.422 65.422s-29.291 65.422-65.422 65.422zM694.044 729.6c-36.132 0-65.422-29.291-65.422-65.422s29.291-65.422 65.422-65.422c36.132 0 65.422 29.291 65.422 65.422s-29.291 65.422-65.422 65.422z" />
<glyph unicode="&#xe94a;" glyph-name="ic_smile" d="M496 832c220.914 0 400-179.086 400-400s-179.086-400-400-400c-220.914 0-400 179.086-400 400s179.086 400 400 400zM653.444 335.221l-1.11-1.296c-0.892-1.009-2.087-2.302-3.578-3.837v0l-5.354-5.294c-8.911-8.501-19.432-17.052-31.441-25.037-34.119-22.687-72.956-36.214-115.961-36.214s-81.842 13.527-115.961 36.214c-12.009 7.985-22.53 16.535-31.441 25.037-3.114 2.971-5.578 5.487-7.368 7.41v0l-2.674 3.018-37.111-30.443 3.13-3.673c10.094-11.43 26.498-26.433 48.886-41.32 41.506-27.599 89.294-44.243 142.539-44.243s101.033 16.645 142.539 44.243c24.876 16.541 42.364 33.225 52.017 44.992v0l-37.111 30.443zM352 640c-17.673 0-32-14.327-32-32v0-96l0.215-3.732c1.848-15.915 15.374-28.268 31.785-28.268 17.673 0 32 14.327 32 32v0 96l-0.215 3.732c-1.848 15.915-15.374 28.268-31.785 28.268zM640 640c-17.673 0-32-14.327-32-32v0-96l0.215-3.732c1.848-15.915 15.374-28.268 31.785-28.268 17.673 0 32 14.327 32 32v0 96l-0.215 3.732c-1.848 15.915-15.374 28.268-31.785 28.268z" />
<glyph unicode="&#xe94b;" glyph-name="ic_categories" d="M418.348 203.989c36.756 0 66.66-31.4 66.66-69.994 0-38.6-29.905-69.994-66.66-69.994-36.762 0-66.666 31.394-66.666 69.994 0 38.594 29.905 69.994 66.666 69.994zM730.911 203.989c36.762 0 66.66-31.4 66.66-69.994 0-38.6-29.899-69.994-66.66-69.994-36.756 0-66.66 31.394-66.66 69.994 0 38.594 29.905 69.994 66.66 69.994zM309.186 832l27.54-122.453 559.275-0.037-104.231-383.124h-417.867c-0.26 0-0.532 0.018-0.815 0.053l-38.255 0.085v-31.147l462.739-0.006v-58.329h-518.276v147.772l66.518 0.040-60.373 299.435-0.080-0.051-20.114 89.434h-137.246v58.329h181.186z" />
<glyph unicode="&#xe94c;" glyph-name="ic_totalprojects" d="M849.112 113.002v718.998h-443.015v-718.998h-31.528v536.353h-199.68v-536.353h-46.888v-49.002h768v49.002h-46.888zM241.179 513.93h69.524v-76.622h-69.524v76.622zM241.179 381.179h69.524v-76.622h-69.524v76.622zM241.179 249.318h69.524v-77.513h-69.524v77.513zM713.297 647.573h69.524v-76.622h-69.524v76.622zM713.297 514.821h69.524v-76.622h-69.524v76.622zM713.297 382.070h69.524v-76.622h-69.524v76.622zM713.297 249.318h69.524v-76.622h-69.524v76.622zM592.842 647.573h69.524v-76.622h-69.524v76.622zM592.842 514.821h69.524v-76.622h-69.524v76.622zM592.842 382.070h69.524v-76.622h-69.524v76.622zM472.387 647.573h69.524v-76.622h-69.524v76.622zM472.387 514.821h69.524v-76.622h-69.524v76.622zM472.387 382.070h69.524v-76.622h-69.524v76.622zM472.387 249.318h69.524v-76.622h-69.524v76.622zM592.842 249.318h69.524v-136.316h-69.524v136.316z" />
<glyph unicode="&#xe94d;" glyph-name="ic_qc" d="M512 823.467l86.381-53.090 101.353 2.786 48.262-89.166 89.169-48.262-2.788-101.353 53.090-86.381-53.090-86.381 2.788-101.353-89.169-48.262-48.262-89.166-101.353 2.786-86.381-53.090-86.381 53.090-101.353-2.786-48.262 89.166-89.169 48.262 2.788 101.353-53.090 86.381 53.090 86.381-2.788 101.353 89.169 48.262 48.262 89.166 101.353-2.786 86.381 53.090zM662.854 573.156l-193.949-232.789-109.010 109.010-29.537-29.495 141.301-141.301 223.236 267.833-32.040 26.742z" />
<glyph unicode="&#xe94e;" glyph-name="ic_month" d="M360.296 832l-0.019-76.757h303.403l0.024 76.757h75.852l-0.014-76.757 113.792-0.043v-691.2h-682.667v691.2l113.749 0.043 0.028 76.757h75.852zM777.481 563.2h-530.963v-422.4h530.963v422.4zM701.63 409.6v-192h-189.63v192h189.63z" />
<glyph unicode="&#xe94f;" glyph-name="ic_chat" d="M1024 960v-796.444h-796.444l-227.556-227.556v1024h1024zM853.333 490.667h-568.889v-85.333h568.889v85.333zM739.556 718.222h-568.889v-85.333h568.889v85.333z" />
<glyph unicode="&#xe950;" glyph-name="ic_checked" d="M648.533 780.8v-51.2h-418.133v-563.2h563.2v281.6h51.2v-332.8h-665.6v665.6h469.333zM835.231 739.169l36.204-36.204-359.435-359.435-120.502 120.502 36.204 36.204 84.298-84.286 323.231 323.22z" />
</font>
</defs>
</svg>
